1 kHz FLAC Total Time: 56:17 min Total Size: 342; 627 MB Today, 18:47. Season 1 Episode 1-4 (2020) [WEB-DL 720p] The limited drama series is a gripping, character-driven thriller based on the 2012 New York Times best selling novel of the same name by William Landay. Download or purchase CDs of the entire Live Bruce Springsteen catalog. Exclusive music of all genres from around the world. 2 and their target audience is IsraBox Music. 44 Gb / 553 Mb / 286 Mb + Hi-Res. Password stores only the client itself! Encryption, recommended for military. 1kHz Total Time: 01:13:32 Total Size: 327 / 651 mb. Listen and download tracks and albums. Password stores only the client itself! Encryption, recommended for military. IsraBox music - exclusive of all music genres from around the world. be information at Website Informer. Read More Feb 29, 2020 Comments: 0. Welcome to popular music site IsraBox. Мессенджер PrivalSystems, Prival. Quality: FLAC 16 bit / 44. Contact israbox. 995148 INDEX 00 02:47:30 FILE "08 Joan Armatrading - Get In The Sun. Artist: The Stepkids Title Of Album: The Stepkids Year Of Release: September 27, 2011 Label: Stones Throw Records Genre: Indie, Funk, Psych-Soul Quality: flac (tracks) Bitrate: lossless Total Time: 31 min 05 sec Total Size. Artist: Paul Jarret feat. cc extension. 77 GB (FLAC Mch) + 1. Check site israbox. Reggae flac download found at israbox. info located in United States that includes israbox and has a. Artist: Aqualise Title: Nightwaves Year Of Release: 2011 Label: Aqualise Music Genre: Downtempo / Chill Out Quality: FLAC (tracks) / MP3 Total Time: 48:05 min Total Size: 293 MB / 109 MB 28-03-2016, 11:30. IsraBox music - exclusive of all music genres from around the world. com is a relatively low-traffic website with approximately 16K visitors monthly, according to Alexa, which gave it a poor rank. 15-01-2014, 05:53. The Beatles - Past Masters (2018) [FLAC] Crosby Stills Nash And Young - American Dream (1988) [FLAC] Donna Summer - The Best Of Donna Summer 20th Century Masters The Millennium Collection (2003) [FLAC] Bob Seger And The Silver Bullet Band - Nine Tonight (1989) [FLAC] Portishead - Dummy (2015) [FLAC]. 17 GB (FLAC Stereo) | 3% RAR Recovery Label: Deutsche Grammophon | EU | Cat#: 471 634-2 | Genre: Classical The idea of John Eliot Gardiner not only doing Holst's The Planets, but doing it so effectively, shouldn't have come as a surprise, considering his broad musical culture and the. Season 1 Episode 1-4 (2020) [WEB-DL 720p] The limited drama series is a gripping, character-driven thriller based on the 2012 New York Times best selling novel of the same name by William Landay. com is actually down then you can resolve the issue by doing following:. Israbox Reggae Israbox Reggae. 1K times per month). cue,log,scans) / MP3 320 Kbps Total Time: 60:53 Total Size: 1. cc is a fully qualified domain name for the domain israbox. com alternative that is safe or free with 50 of the best like websites that are similar to Israbox. The homepage lists the Top Albums and also notes “you can download free music albums. cue,scans) Bitrate: Lossless Total Time: 00:48:29 On IsraBox you can listen music for review is also you can download music albums. IsraBox music - exclusive of all music genres from around the world. ZZ Top - The Complete Studio Albums 1970-1990 [HD Tracks] (2013) SinВrееd - Whеn Wоrlds Соllidе [Jараnеsе Еditiоn] (2010 Маstеrрlаn - Тimе То Ве Кing [Jараnеsе Еditiоn] (2010. Original Release Date: 2002. Contact israbox. Password stores only the client itself! Encryption, recommended for military. Artist: Aqualise Title: Nightwaves Year Of Release: 2011 Label: Aqualise Music Genre: Downtempo / Chill Out Quality: FLAC (tracks) / MP3 Total Time: 48:05 min Total Size: 293 MB / 109 MB 28-03-2016, 11:30. Listen, buy and download tracks and albums! Keywords: riot fire down under, blues traveler discography, Ambient Realms, band maid flac, 8 bit monk. 2kHz FLAC (tracks) Total Time: 32:12 Total Size: 75 / 126 / 536 MB. Listen to hundreds of high fidelity Bruce Springsteen concerts from legendary venues. Let your audience know what to hear first. IsraBox - Music is Life! 1 view this month. Artist: Paul Jarret feat. Additionally, you can browse 7 more links that might be useful for you. Мессенджер PrivalSystems, Prival. Download FLAC Mix Madness - House Lovers 2019 lossless CD, MP3. com is a relatively low-traffic website with approximately 16K visitors monthly, according to Alexa, which gave it a poor rank. Listen and download tracks and albums. Have fun and enjoy!. cue) Bitrate: Lossless Total Time: 00:49:17 Total Size: 291 mb WebSite: amazon. 41 GB (ISO) + 2. Artist: Jennifer Nettles Title Of Album: That Girl Year Of Release: 2014 Label: Mercury Nashville Genre: Country, Pop, Singer-Songwriter Quality: 320 / FLAC Total Time: 41:23 min Total Size: 102 / 256 MB. Read More. Artist: Shirley Collins Title: Shirley Sings Irish Year Of Release: 2019 Label: RevOla Genre: Blues/Country/Folk, Folk Quality: MP3 320 kbps / FLAC (tracks) / FLAC (tracks) 24bit/44. com for safety and security problems. 1 Khz Total Time: 56:03 min. The Spacelords. Quality: 320Kbps / Lossless. cc is a fully qualified domain name for the domain israbox. Listen, buy and download tracks and albums!. 1 MB / 118,82 MB. Dan Klee - Portraits (2019). Quality: FLAC (tracks+. flac" WAVE TRACK 07 AUDIO TITLE "Mama Mercy" REM REPLAYGAIN_TRACK_GAIN -0. Total Size: 4. Size: 102 MB / 288 MB. Download FLAC Nems - Gorilla Monsoon 2019 lossless CD, MP3. download uses Nginx for server. Reggae flac download found at israbox. 29 dB REM REPLAYGAIN_TRACK_PEAK 0. Original Release Date: 2002. Artist: Jhené Aiko Title: Souled Out Year Of Release: 2015 Label: Def Jam Recordings Genre: Soul, R&B Quality: 16-bit/44. Artist: Ulysses String Quartet, Thea Lobo, Vera Savage, Andy Papas, Ryu-Kyung Kim Title: The Shakespeare Concerts Series, Vol. Pda flac on MainKeys. cue), lossless Страницы: 1 Рок-музыка » Зарубежный Rock » Classic Rock & Hard Rock (lossless). 8: Who is Sylvia Year Of Release: 2020 Label: Navona Genre: Classical Quality: flac lossless / flac 24bits - 44. 1 kHz (Tracks) Artist: The Beatles Title: The Beginnings Of The Beatles: From Hamburg To London 1961-1962 Released: 2013 Style: Pop Rock RAR Size: 593 Mb. 95 and have a daily income of around $ 0. cue,scans) Bitrate: Lossless Total Time: 00:48:29 On IsraBox you can listen music for review is also you can download music albums. info extension. Мессенджер PrivalSystems, Prival. Artist: Orchestra Filarmonica della Scala & Riccardo Chailly Title: Cherubini Discoveries Year Of Release: 2016/2020 Label: Decca Music Group Ltd. com review : Different kinds of music available to download from files sharing sites like Oboom, Xerver, Uploaded, Rapidgator, Turbobit Mostly for full album download, it display full albums informations such as year of release, label, music genre, quality, bitrate, time duration, album cover photo and more. 1kHz FLAC (tracks) Total Time: 47:19 Total Size: 108 / 232 / 469 MB. 975220 INDEX 01 00:00:00 TRACK 08 AUDIO TITLE "Get In The Sun" REM REPLAYGAIN_TRACK_GAIN -0. com, DNS Server: ns1. net, alllossless. 44 Gb / 553 Mb / 286 Mb + Hi-Res. Norton Safe Web has analyzed israbox. 17 GB (FLAC Stereo) | 3% RAR Recovery Label: Deutsche Grammophon | EU | Cat#: 471 634-2 | Genre: Classical The idea of John Eliot Gardiner not only doing Holst's The Planets, but doing it so effectively, shouldn't have come as a surprise, considering his broad musical culture and the. New Age | IsraBox. Password stores only the client itself! Encryption, recommended for military. Artist: Hugo Manuel Title: The Starlight Night Year Of Release: 2020 Label: Self Genre: Ambient Quality: 16bit-44,1kHz FLAC / 24bit-96kHz FLAC Total Time: 01:08:03 Total Size: 322 mb / 1,2 gb Yesterday, 00:01. com is a completely virtual record label and a secure online store open 7 days a week, 365 days a year. com is actually down then you can resolve the issue by doing following:. Keywords: rock, itunes, flac, classical, M4A, 2016, MP3, hits, jazz, discography. com availability from different countries Check other site We check this website, now israbox. 1 kHz FLAC Total Time: 56:17 min Total Size: 342; 627 MB Today, 18:47. Genre: Classical Quality: FLAC (tracks) / 24bit-96kHz FLAC (tracks) Total Time: 01:14:17 Total Size: 327 MB / 1. It is a domain having info extension. Quality: FLAC (tracks+. Welcome to Ektoplazm, the world's #1 source for free and legal psytrance, techno, and downtempo music in MP3, FLAC, and WAV format. Including: Electronic, Techno, Electro, House, Experimental, Grime, Dubstep, Hip Hop, Alternative, Indie, and many more. 1K times per month). Download or purchase CDs of the entire Live Bruce Springsteen catalog. The musical blog IsraBox is a huge collection of musical albums, discographies of groups and artists. Artist: Imelda May Title: Life. Мессенджер PrivalSystems, Prival. IsraBox music - exclusive of all music genres from around the world. We specialise in finding the highest quality products regardless of format or genre. Listen, buy and download tracks and albums! Keywords: riot fire down under, blues traveler discography, Ambient Realms, band maid flac, 8 bit monk. 3 GB / 573 MB. 41 GB (ISO) + 2. 2kHz FLAC (tracks) Total Time: 32:12 Total Size: 75 / 126 / 536 MB. Performer: Lazar Berman, Alfred Brendel, György Cziffra, Emil Gilels, Vladimir Ovchinikov, Artur Pizarro, Sviatoslav Richter, Earl Wild, Klára Würtz Composer: Franz Liszt Audio CD Number of Discs: 10 CD box set Format: FLAC (tracks+cue) Label: Brilliant Classics Size: 2. Read More Feb 29, 2020 Comments: 0. download data below. com? I have been trying for a Chet Atkins music collection for the last few days. IsraBox music - exclusive of all music genres from around the world. Each time one clicks the download. Exclusive music of all genres from around the world. Help your audience discover your sounds. Israbox review. club informiert die Besucher über Themen wie Best Jazz Albums, Camera Systems und Camera. Let your audience know what to hear first. cc located in United States that includes israbox and has a. Artist: Paul Jarret feat. To add a login to this list: register a fake account then share it. Blood Year Of Release: 2017 Label: Time Blues Genre: Pop Rock, Folk, Bluegrass, Soul Quality: FLAC 24bit-96kHz / FLAC (image+. IsraBox - Music is Life! пятница, 9 апреля 2010 г. 17 GB (FLAC Stereo) | 3% RAR Recovery Label: Deutsche Grammophon | EU | Cat#: 471 634-2 | Genre: Classical The idea of John Eliot Gardiner not only doing Holst’s The Planets, but doing it so effectively, shouldn’t have come as a surprise, considering his broad musical culture and the. Toad (4) - Rarities - CD - 1992 - Switzerland - Hard Rock - flac - Aurophon - CD AU 32111 5 weeks ago ATITUDE ROCK'N'ROLL divulga a cultura rock e novas bandas. Norton Safe Web has analyzed israbox. Password stores only the client itself! Encryption, recommended for military. info is SAFE to browse. So, answer to question: Is israbox Down Right Now? - NO! israbox is up! If you have problem with access to site israbox, and domain israbox. IsraBox is a huge collection of musical albums, discographies of groups and artists. Israbox provides users with download access to a broad range of commercially available music. This website is estimated worth of $ 8. 995148 INDEX 00 02:47:30 FILE "08 Joan Armatrading - Get In The Sun. Artist: Bob James Title: Lucky Seven Year Of Release: 1979/2015 Label: Tappan Zee Records – VICJ-61720 Genre: Smooth Jazz, Jazz-Funk Quality: MP3 320 kbps / FLAC (image +. Defending Jacob. 1kHz Total Time: 00:10:47 Total Size: 56. Artist: Hugo Manuel Title: The Starlight Night Year Of Release: 2020 Label: Self Genre: Ambient Quality: 16bit-44,1kHz FLAC / 24bit-96kHz FLAC Total Time: 01:08:03 Total Size: 322 mb / 1,2 gb Yesterday, 00:01. (showing articles 101 to 120 of 3898) Loading Browse the Latest Snapshot Browsing All Articles (3898 Articles). Artist: Bob James Title: Lucky Seven Year Of Release: 1979/2015 Label: Tappan Zee Records - VICJ-61720 Genre: Smooth Jazz, Jazz-Funk Quality: MP3 320 kbps / FLAC (image +. 41 GB (ISO) + 2. Let your audience know what to hear first. Displaying 1 to 10 of 500 alternatives to Israbox. com is a relatively low-traffic website with approximately 16K visitors monthly, according to Alexa, which gave it a poor rank. com server?. Mp3, Flac, Lossless, Ape and Rapidshare. Artist: Miles Davis Title: Music From and Inspired by The Film Birth Of The Cool (Remastered) Year Of Release: 2020 Label: Columbia/Legacy Genre: Jazz Quality: Mp3 320 kbps / FLAC (tracks) / 24bit-48kHz FLAC (tracks) Total Time: 01:19:31 Total Size: 185 / 429 / 880 MB. 1kHz Total Time: 01:13:32 Total Size: 327 / 651 mb. IsraBox - Music is Life! New Albums 2019. Explorez des nouveautés au quotidien, créez vos propres playlists, partagez vos titres ou albums favoris au sein de la communauté. com Managing Team. cue), lossless Страницы: 1 Электронная музыка » Industrial, Noise, EBM, Dark Electro, Aggrotech, Synthpop, New Wave » Synthpop, Futurepop, New Wave, Electropop (lossless). 238, HostName: lb-182-238. Password stores only the client itself! Encryption, recommended for military. Artist: Astrud Gilberto Title: Work From Home with Astrud Gilberto Year Of Release: 2020 Label: UMG Recordings, Inc. Contact israbox. IsraBox - Music is Life! пятница, 9 апреля 2010 г. com is a relatively low-traffic website with approximately 16K visitors monthly, according to Alexa, which gave it a poor rank. Exclusive releases and albums of various styles and music genres in high quality are available to you to listen, buy and download. 44 Gb / 553 Mb / 286 Mb + Hi-Res. Artist: Shirley Collins Title: Shirley Sings Irish Year Of Release: 2019 Label: RevOla Genre: Blues/Country/Folk, Folk Quality: MP3 320 kbps / FLAC (tracks) / FLAC (tracks) 24bit/44. Artist: Michael Houston Title Of Album: Chill 2 This Year Of Release: 2007 Label: Houstown Entertainment Genre: Jazz / Smooth Jazz Format: MP3 Bitrate: VBR ~230 Kbps Tracks: 15 Total Time: 01:08:50. Listen, buy and download tracks and albums! Keywords: riot fire down under, blues traveler discography, Ambient Realms, band maid flac, 8 bit monk. 2kHz FLAC (tracks) Total Time: 32:12 Total Size: 75 / 126 / 536 MB. Here about 30 popular APE, Lossless, album, flac sites such as israbox. Password stores only the client itself! Encryption, recommended for military. The Spacelords. Password stores only the client itself! Encryption, recommended for military. Artist: Ulysses String Quartet, Thea Lobo, Vera Savage, Andy Papas, Ryu-Kyung Kim Title: The Shakespeare Concerts Series, Vol. MP3 FLAC Lossless APE Music Rapidshare MediaFire Megaupload Album Releases Scene Download Jazz Lounge Bossa Chillout World Downtempo Country Soul Meta-description: IsraBox - 150 new music albums every day!. 1kHz FLAC (tracks) Total Time: 47:19 Total Size: 108 / 232 / 469 MB. (showing articles 101 to 120 of 3898) Loading Browse the Latest Snapshot Browsing All Articles (3898 Articles). Quality: FLAC (tracks+. See posts, photos and more on Facebook. Here are our handpicked suggestions for 'israbox review'. Мессенджер PrivalSystems, Prival. The Spacelords. Listen and download tracks and albums. com headlines: Observe fresh posts and updates on Israbox. com (IsraBox. Download or purchase CDs of the entire Live Bruce Springsteen catalog. The musical blog IsraBox is a huge collection of musical albums, discographies of groups and artists. Dan Klee - Portraits (2019). Rock/Acoustic/Female Vocal Quality: mp3 Bitrate: 256K/s 44100Hz Stereo. Check site israbox. November 2017, 16:28 The Corrs / Jupiter Calling Used drive : ATAPI iHBS312 2 Adapter: 1 ID: 2. cue, log, full artwork) Total Time: 00:40:52 Total Size: 138. Contact israbox. cue) Bitrate: Lossless Total Time: 00:49:17 Total Size: 291 mb WebSite: amazon. Q: What to do if problem is at israbox. Download FLAC Nems - Gorilla Monsoon 2019 lossless CD, MP3. 2 and their target audience is IsraBox Music. Password stores only the client itself! Encryption, recommended for military. Artist: Imelda May Title: Life. Artist: Orchestra Filarmonica della Scala & Riccardo Chailly Title: Cherubini Discoveries Year Of Release: 2016/2020 Label: Decca Music Group Ltd. September 2016 EAC extraction logfile from 12. MP3 FLAC Lossless APE Music Rapidshare MediaFire Megaupload Album Releases Scene Download Jazz Lounge Bossa Chillout World Downtempo Country Soul Meta-description: IsraBox - 150 new music albums every day!. Artist: Jennifer Nettles Title Of Album: That Girl Year Of Release: 2014 Label: Mercury Nashville Genre: Country, Pop, Singer-Songwriter Quality: 320 / FLAC Total Time: 41:23 min Total Size: 102 / 256 MB. The Guess Who - Albums Collection (1965-1975). Artist: Various Artists Title: The Many Faces Of Santana: A Journey Through The Inner World Of Santana Year Of Release: 2017 Label: Music Brokers Genre: Jazz, Rock, Latin, Blues Quality: FLAC (image +. Check site israbox. com alternative that is safe or free with 50 of the best like websites that are similar to Israbox. Мессенджер PrivalSystems, Prival. 15-01-2014, 05:53. Joy Williams - We Mapped The World [EP](2010) Artist: Joy Williams Title Of Album: We Mapped The. info - Israbox Website. 3 GB / 573 MB. IsraBox - Music is Life! 1 view this month. We specialise in finding the highest quality products regardless of format or genre. 2 and their target audience is IsraBox Music. com server?. 1K times per month). Have fun and enjoy!. IsraBox is a huge collection of musical albums, discographies of groups and artists. Artist: Jhené Aiko Title: Souled Out Year Of Release: 2015 Label: Def Jam Recordings Genre: Soul, R&B Quality: 16-bit/44. Artist: Jon Secada Title Of Album: Heart, Soul, and a Voice Year Of Release: 1994 Label: SBK Records Genre: Soul,R&B Quality: MP3 / Joint Stereo Bitrate: 320 kbps / 44. IsraBox - 150 new music albums every day!. Artist: Jon Secada Title Of Album: Heart, Soul, and a Voice Year Of Release: 1994 Label: SBK Records Genre: Soul,R&B Quality: MP3 / Joint Stereo Bitrate: 320 kbps. Artist: Paul Jarret feat. 1kHz FLAC; 24-bit/44. Joy Williams - We Mapped The World [EP](2010) Artist: Joy Williams Title Of Album: We Mapped The World [EP] Year Of Release: 2010 Genre: Christian/Alt. Password stores only the client itself! Encryption, recommended for military. Artist: Hugo Manuel Title: The Starlight Night Year Of Release: 2020 Label: Self Genre: Ambient Quality: 16bit-44,1kHz FLAC / 24bit-96kHz FLAC Total Time: 01:08:03 Total Size: 322 mb / 1,2 gb Yesterday, 00:01. Additionally, you can browse 7 more links that might be useful for you. Artist: Apparat Title: Capri-Revolution (Apparat Soundtracks 1) Year Of Release: 2020 Label: It's Complicated - 880918 250663 Genre: Ambient Quality: 16bit-44,1kHz FLAC / 24bit-44,1kHz FLAC Total Time: 40:08 Total Size: 200 mb / 392 mb +Hi-RES. See related links to what you are looking for. Their server software is running on nginx/1. IsraBox music - exclusive of all music genres from around the world. The Spacelords. Situs ini berisi pembahasan seputar judi online terbaru dan terlengkap di Indonesia. com alternative that is safe or free with 50 of the best like websites that are similar to Israbox. Artist: Aqualise Title: Nightwaves Year Of Release: 2011 Label: Aqualise Music Genre: Downtempo / Chill Out Quality: FLAC (tracks) / MP3 Total Time: 48:05 min Total Size: 293 MB / 109 MB 28-03-2016, 11:30. 12 Popular Sites Like Israbox Our team has searched the web and found a lot of of the best music and mp3 sites like Israbox. Reddit is also anonymous so you can be yourself, with your Reddit profile and persona disconnected from your real-world identity. Advanced stats about www. We specialise in finding the highest quality products regardless of format or genre. The musical blog IsraBox is a huge collection of musical albums, discographies of groups and artists. cue), lossless Страницы: 1 Электронная музыка » Industrial, Noise, EBM, Dark Electro, Aggrotech, Synthpop, New Wave » Synthpop, Futurepop, New Wave, Electropop (lossless). Blood Year Of Release: 2017 Label: Time Blues Genre: Pop Rock, Folk, Bluegrass, Soul Quality: FLAC 24bit-96kHz / FLAC (image+. net, alllossless. Reddit has thousands of vibrant communities with people that share your interests. The Guess Who - Albums Collection (1965-1975). (showing articles 101 to 120 of 3898) Loading Browse the Latest Snapshot Browsing All Articles (3898 Articles). info located in United States that includes israbox and has a. We present new items of music and the hot hits for information. Artist: Jennifer Nettles Title Of Album: That Girl Year Of Release: 2014 Label: Mercury Nashville Genre: Country, Pop, Singer-Songwriter Quality: 320 / FLAC Total Time: 41:23 min Total Size: 102 / 256 MB. To add a login to this list: register a fake account then share it. Listen and download tracks and albums. 15-01-2014, 05:53. com (IsraBox. Genre: Jazz, Vocal Jazz, Bossa Nova Quality: mp3 320 kbps / flac lossless Total Time: 01:36:48 Total Size: 226 / 575 mb. Reddit is also anonymous so you can be yourself, with your Reddit profile and persona disconnected from your real-world identity. The Spacelords. Complete your collection. 1&2] (2010. Here are our handpicked suggestions for 'israbox review'. Artist: Bob James Title: Lucky Seven Year Of Release: 1979/2015 Label: Tappan Zee Records - VICJ-61720 Genre: Smooth Jazz, Jazz-Funk Quality: MP3 320 kbps / FLAC (image +. Artist: Michael Houston Title Of Album: Chill 2 This Year Of Release: 2007 Label: Houstown Entertainment Genre: Jazz / Smooth Jazz Format: MP3 Bitrate: VBR ~230 Kbps. cue), lossless Страницы: 1 Рок-музыка » Зарубежный Rock » Classic Rock & Hard Rock (lossless). Their server software is running on nginx/1. Download or purchase CDs of the entire Live Bruce Springsteen catalog. FLAC ("Free Lossless Audio Codec") shrinks audio files to about half their original size without losing any of the information, a so-called lossless compression. Warning: This site may contain some obscene material or profanity, so we cannot display its news (despite the fact it is visited around 15. August 2016 EAC extraction logfile from 18. Мессенджер PrivalSystems, Prival. Listen, buy and download tracks and albums!. org, bassandspace. MP3 FLAC Lossless APE Music Rapidshare MediaFire Megaupload Album Releases Scene Download Jazz Lounge Bossa Chillout World Downtempo Country Soul Meta-description: IsraBox - 150 new music albums every day!. Advanced stats about www. May 6, 2020. IsraBox - Music is Life! пятница, 9 апреля 2010 г. Quality: FLAC (tracks+. 44 Gb / 553 Mb / 286 Mb + Hi-Res. Size: 102 MB / 288 MB. Click here for more information about Israbox. Artist: Jo David Meyer Lysne & Mats Eilertsen Title: Kroksjø Year Of Release: 2020 Label: Hubro Genre: Jazz Quality: Mp3 320 kbps / FLAC (tracks) / 24bit-88. com is a completely virtual record label and a secure online store open 7 days a week, 365 days a year. com is a relatively low-traffic website with approximately 16K visitors monthly, according to Alexa, which gave it a poor rank. Rock/Acoustic/Female Vocal Quality: mp3 Bitrate: 256K/s 44100Hz Stereo. The best 3 similar sites: israbox. Advanced stats about www. FILE "07 Joan Armatrading - Mama Mercy. 41 GB (ISO) + 2. 44 Gb / 553 Mb / 286 Mb + Hi-Res. 238, HostName: lb-182-238. Werden auch Sie einem der Tausenden zufriedenen Besucher, die Informationen zu Vision Camera, Vision und Media Fire Rar erhielten. cc located in United States that includes israbox and has a. Listen and download tracks and albums. Artist: Pablo Held Title: Ascent Year Of Release: 2020 Label: Edition Records Genre: Jazz Quality: Mp3 320 kbps / FLAC (tracks) / 24bit-96kHz FLAC (tracks) Total Time: 46:46 Total Size: 108 / 266 / 918 MB. Ecoutez et téléchargez gratuitement la musique de milliers d'artistes indépendants. 1kHz FLAC; 24-bit/44. Israbox Reggae Israbox Reggae. cue), lossless Страницы: 1 Электронная музыка » Industrial, Noise, EBM, Dark Electro, Aggrotech, Synthpop, New Wave » Synthpop, Futurepop, New Wave, Electropop (lossless). Tennis - Swimmer (2020) Hi-Res. Rock/Acoustic/Female Vocal Quality: mp3 Bitrate: 256K/s 44100Hz Stereo. net, alllossless. Quality: FLAC (tracks+. (Updated: May 1st, 2020). Artist: Miles Davis Title: Music From and Inspired by The Film Birth Of The Cool (Remastered) Year Of Release: 2020 Label: Columbia/Legacy Genre: Jazz Quality: Mp3 320 kbps / FLAC (tracks) / 24bit-48kHz FLAC (tracks) Total Time: 01:19:31 Total Size: 185 / 429 / 880 MB. Explorez des nouveautés au quotidien, créez vos propres playlists, partagez vos titres ou albums favoris au sein de la communauté. Exclusive music of all genres from around the world. Listen, buy and download tracks and albums! Keywords: riot fire down under, blues traveler discography, Ambient Realms, band maid flac, 8 bit monk. Report adult content: click to rate: Account: (). The Fratellis – Half Drunk Under a Full Moon. It is a domain having info extension. 28 GB Recovery: +3% Scan: yes (cover) Server: rapidgator. Мессенджер PrivalSystems, Prival. Quality: 320Kbps / Lossless. Joy Williams - We Mapped The World [EP](2010) Artist: Joy Williams Title Of Album: We Mapped The. cue, log, full artwork) Total Time: 00:40:52 Total Size: 138. Ecoutez et téléchargez gratuitement la musique de milliers d'artistes indépendants. MP3 FLAC Lossless APE Music Rapidshare MediaFire Megaupload Album Releases Scene Download Jazz Lounge Bossa Chillout World Downtempo Country Soul Meta-description: IsraBox - 150 new music albums every day!. Toad (4) - Rarities - CD - 1992 - Switzerland - Hard Rock - flac - Aurophon - CD AU 32111 5 weeks ago ATITUDE ROCK'N'ROLL divulga a cultura rock e novas bandas. Artist: Imelda May Title: Life. Original Release Date: 2002. Have fun and enjoy!. The Beatles - Past Masters (2018) [FLAC] Crosby Stills Nash And Young - American Dream (1988) [FLAC] Donna Summer - The Best Of Donna Summer 20th Century Masters The Millennium Collection (2003) [FLAC] Bob Seger And The Silver Bullet Band - Nine Tonight (1989) [FLAC] Portishead - Dummy (2015) [FLAC]. Artist: Shirley Collins Title: Shirley Sings Irish Year Of Release: 2019 Label: RevOla Genre: Blues/Country/Folk, Folk Quality: MP3 320 kbps / FLAC (tracks) / FLAC (tracks) 24bit/44. Format: MP3 / FLAC. 1K times per month). com alternative that is safe or free with 50 of the best like websites that are similar to Israbox. A list of blogs and websites that provide music in lossless formats (ape, flac, wav, etc. Quality: FLAC (tracks+. 238, HostName: lb-182-238. Artist: Astrud Gilberto Title: Work From Home with Astrud Gilberto Year Of Release: 2020 Label: UMG Recordings, Inc. Мессенджер PrivalSystems, Prival. 29 dB REM REPLAYGAIN_TRACK_PEAK 0. cue,log,scans) / MP3 320 Kbps Total Time: 60:53 Total Size: 1. Artist: Ulysses String Quartet, Thea Lobo, Vera Savage, Andy Papas, Ryu-Kyung Kim Title: The Shakespeare Concerts Series, Vol. Welcome to Ektoplazm, the world's #1 source for free and legal psytrance, techno, and downtempo music in MP3, FLAC, and WAV format. be information at Website Informer. Artist: Orchestra Filarmonica della Scala & Riccardo Chailly Title: Cherubini Discoveries Year Of Release: 2016/2020 Label: Decca Music Group Ltd. cc is a fully qualified domain name for the domain israbox. Exclusive releases and albums of various styles and music genres in high quality are available to you to listen, buy and download. Israbox Reggae Israbox Reggae. 41 GB (ISO) + 2. Password stores only the client itself! Encryption, recommended for military. The musical blog IsraBox is a huge collection of musical albums, discographies of groups and artists. Download FLAC Run The Jewels - Run The Jewels 2014 lossless CD, MP3. Artist: The Stepkids Title Of Album: The Stepkids Year Of Release: September 27, 2011 Label: Stones Throw Records Genre: Indie, Funk, Psych-Soul Quality: flac (tracks) Bitrate: lossless Total Time: 31 min 05 sec Total Size. Music genres Years » 2016 available in The AbSoulJah flac. Artist: Bob James Title: Lucky Seven Year Of Release: 1979/2015 Label: Tappan Zee Records - VICJ-61720 Genre: Smooth Jazz, Jazz-Funk Quality: MP3 320 kbps / FLAC (image +. Format: MP3 / FLAC. com is a relatively low-traffic website with approximately 16K visitors monthly, according to Alexa, which gave it a poor rank. September 2016, 17:29 Tavares / In The City Used drive : GENERIC CDRCB05 Adapter: 1 ID: 1. Мессенджер PrivalSystems, Prival. Artist: Apparat Title: Capri-Revolution (Apparat Soundtracks 1) Year Of Release: 2020 Label: It's Complicated – 880918 250663 Genre: Ambient Quality: 16bit-44,1kHz FLAC / 24bit-44,1kHz FLAC Total Time: 40:08 Total Size: 200 mb / 392 mb +Hi-RES. If israbox. September 2016 EAC extraction logfile from 12. IsraBox music - exclusive of all music genres from around the world. cue,log,scans) / MP3 320 Kbps Total Time: 60:53 Total Size: 1. Artist: Michael Houston Title Of Album: Chill 2 This Year Of Release: 2007 Label: Houstown Entertainment Genre: Jazz / Smooth Jazz Format: MP3 Bitrate: VBR ~230 Kbps Tracks: 15 Total Time: 01:08:50. (Updated: May 1st, 2020). com (IsraBox. See posts, photos and more on Facebook. 1K times per month). 1 MB / 118,82 MB. The Spacelords. Rock/Acoustic/Female Vocal Quality: mp3 Bitrate: 256K/s 44100Hz Stereo. Look at most relevant Reggae flac download websites out of 1. 58 dB REM REPLAYGAIN_TRACK_PEAK 0. Situs ini berisi pembahasan seputar judi online terbaru dan terlengkap di Indonesia. September 2016 EAC extraction logfile from 12. 3 GB / 573 MB. cue,scans) Bitrate: Lossless Total Time: 00:48:29 On IsraBox you can listen music for review is also you can download music albums. FILE "07 Joan Armatrading - Mama Mercy. Dan Klee - Portraits (2019). Genre: Jazz, Vocal Jazz, Bossa Nova Quality: mp3 320 kbps / flac lossless Total Time: 01:36:48 Total Size: 226 / 575 mb. Quality: FLAC (tracks+. Мессенджер PrivalSystems, Prival. Check the best res. Reddit is also anonymous so you can be yourself, with your Reddit profile and persona disconnected from your real-world identity. 41 GB (ISO) + 2. Musical blog IsraBox is a huge collection of musical albums, discographies of groups and artists. cue,log,scans) / MP3 320 Kbps Total Time: 60:53 Total Size: 1. com headlines: Observe fresh posts and updates on Israbox. Format: MP3 / FLAC. IsraBox - Music is Life! New Albums 2019. Have fun and enjoy!. Мессенджер PrivalSystems, Prival. info extension. To add a login to this list: register a fake account then share it. Xoki - Specular (2019). Artist: Paul Jarret feat. Check the best res. net, alllossless. Performer: Lazar Berman, Alfred Brendel, György Cziffra, Emil Gilels, Vladimir Ovchinikov, Artur Pizarro, Sviatoslav Richter, Earl Wild, Klára Würtz Composer: Franz Liszt Audio CD Number of Discs: 10 CD box set Format: FLAC (tracks+cue) Label: Brilliant Classics Size: 2. Artist: Ulysses String Quartet, Thea Lobo, Vera Savage, Andy Papas, Ryu-Kyung Kim Title: The Shakespeare Concerts Series, Vol. Read More. Israbox provides users with download access to a broad range of commercially available music. Help your audience discover your sounds. 1 kHz (Tracks) Artist: The Beatles Title: The Beginnings Of The Beatles: From Hamburg To London 1961-1962 Released: 2013 Style: Pop Rock RAR Size: 593 Mb. See posts, photos and more on Facebook. Music genres Years » 2016 available in The AbSoulJah flac. info located in United States that includes israbox and has a. See related links to what you are looking for. Artist: Various Artists Title: The Many Faces Of Santana: A Journey Through The Inner World Of Santana Year Of Release: 2017 Label: Music Brokers Genre: Jazz, Rock, Latin, Blues Quality: FLAC (image +. Download FLAC Nems - Gorilla Monsoon 2019 lossless CD, MP3. We found that English is the preferred language on Isra Box pages. com is a relatively low-traffic website with approximately 16K visitors monthly, according to Alexa, which gave it a poor rank. Help your audience discover your sounds. The musical blog IsraBox is a huge collection of musical albums, discographies of groups and artists. Artist: Jo David Meyer Lysne & Mats Eilertsen Title: Kroksjø Year Of Release: 2020 Label: Hubro Genre: Jazz Quality: Mp3 320 kbps / FLAC (tracks) / 24bit-88. September 2016, 17:29 Tavares / In The City Used drive : GENERIC CDRCB05 Adapter: 1 ID: 1. 77 GB (FLAC Mch) + 1. com is actually down then you can resolve the issue by doing following:. Artist: Hugo Manuel Title: The Starlight Night Year Of Release: 2020 Label: Self Genre: Ambient Quality: 16bit-44,1kHz FLAC / 24bit-96kHz FLAC Total Time: 01:08:03 Total Size: 322 mb / 1,2 gb Yesterday, 00:01. Xoki - Specular (2019). cue, log, scans) / MP3 Total Time: 3:29:51 Total Size: 1. Here are our handpicked suggestions for 'israbox review'. org, bassandspace. Artist: Imelda May Title: Life. Including: Electronic, Techno, Electro, House, Experimental, Grime, Dubstep, Hip Hop, Alternative, Indie, and many more. Listen, buy and download tracks and albums!. Artist: Miles Davis Title: Music From and Inspired by The Film Birth Of The Cool (Remastered) Year Of Release: 2020 Label: Columbia/Legacy Genre: Jazz Quality: Mp3 320 kbps / FLAC (tracks) / 24bit-48kHz FLAC (tracks) Total Time: 01:19:31 Total Size: 185 / 429 / 880 MB. cue) Bitrate: Lossless Total Time: 00:49:17 Total Size: 291 mb WebSite: amazon. 2 and their target audience is IsraBox Music. info - Israbox Website. The best 3 similar sites: israbox. Password stores only the client itself! Encryption, recommended for military. Read More. 77 GB (FLAC Mch) + 1. 1kHz FLAC (tracks) Total Time: 47:19 Total Size: 108 / 232 / 469 MB. FLAC ("Free Lossless Audio Codec") shrinks audio files to about half their original size without losing any of the information, a so-called lossless compression. IsraBox - Music is Life! пятница, 9 апреля 2010 г. Quality: FLAC (tracks+. We found that English is the preferred language on Isra Box pages. Additionally, you can browse 7 more links that might be useful for you. See related links to what you are looking for. IsraBox - 150 new music albums every day!. To add a login to this list: register a fake account then share it. It is a domain having info extension. 1K times per month). FILE "07 Joan Armatrading - Mama Mercy. The Spacelords. 2kHz FLAC (tracks) Total Time: 32:12 Total Size: 75 / 126 / 536 MB. Israbox Reggae Israbox Reggae. Мессенджер PrivalSystems, Prival. The musical blog IsraBox is a huge collection of musical albums, discographies of groups and artists. Password stores only the client itself! Encryption, recommended for military. Today's Israbox. Total Size: 4. 5 Million at KeywordSpace. com: The Stepkids - The Stepkids (2011) flac The Stepkids - The Stepkids (2011) flac. This website is estimated worth of $ 8. Artist: Imelda May Title: Life. Situs ini berisi pembahasan seputar judi online terbaru dan terlengkap di Indonesia. MP3 FLAC Lossless APE Music Rapidshare MediaFire Megaupload Album Releases Scene Download Jazz Lounge Bossa Chillout World Downtempo Country Soul Meta-description: IsraBox - 150 new music albums every day!. To add a login to this list: register a fake account then share it. Listen and download tracks and albums. cue), lossless Страницы: 1 Рок-музыка » Зарубежный Rock » Classic Rock & Hard Rock (lossless). cue,scans) Bitrate: Lossless Total Time: 00:48:29 On IsraBox you can listen music for review is also you can download music albums. Artist: Shirley Collins Title: Shirley Sings Irish Year Of Release: 2019 Label: RevOla Genre: Blues/Country/Folk, Folk Quality: MP3 320 kbps / FLAC (tracks) / FLAC (tracks) 24bit/44. 975220 INDEX 01 00:00:00 TRACK 08 AUDIO TITLE "Get In The Sun" REM REPLAYGAIN_TRACK_GAIN -0. com is up and dont blocked for our system and other users of the Internet. Country music mp3 download. Exclusive music of all genres from around the world. Blood Year Of Release: 2017 Label: Time Blues Genre: Pop Rock, Folk, Bluegrass, Soul Quality: FLAC 24bit-96kHz / FLAC (image+. com (IsraBox. IsraBox - Music is Life! New Albums 2019. Quality: 320Kbps / Lossless. info located in United States that includes israbox and has a. 1 kHz (Tracks) Artist: The Beatles Title: The Beginnings Of The Beatles: From Hamburg To London 1961-1962 Released: 2013 Style: Pop Rock RAR Size: 593 Mb. Size: 102 MB / 288 MB. Today's Israbox. Registrar IANA ID: 1362 Registrar Abuse Contact Email: @regtime. Welcome to Ektoplazm, the world's #1 source for free and legal psytrance, techno, and downtempo music in MP3, FLAC, and WAV format. 1kHz FLAC (tracks) Total Time: 47:19 Total Size: 108 / 232 / 469 MB. Listen and download tracks and albums. Password stores only the client itself! Encryption, recommended for military. ch IP Server: 103. Keywords: rock, itunes, flac, classical, M4A, 2016, MP3, hits, jazz, discography. Artist: Hugo Manuel Title: The Starlight Night Year Of Release: 2020 Label: Self Genre: Ambient Quality: 16bit-44,1kHz FLAC / 24bit-96kHz FLAC Total Time: 01:08:03 Total Size: 322 mb / 1,2 gb Yesterday, 00:01. com is a relatively low-traffic website with approximately 16K visitors monthly, according to Alexa, which gave it a poor rank. 975220 INDEX 01 00:00:00 TRACK 08 AUDIO TITLE "Get In The Sun" REM REPLAYGAIN_TRACK_GAIN -0. com, DNS Server: ns1. flac" WAVE TRACK 07 AUDIO TITLE "Mama Mercy" REM REPLAYGAIN_TRACK_GAIN -0. download data below. Exclusive music of all genres from around the world. Hannah Tolf, Éléonore Billy & Étienne Renard Title: Emma Year Of Release: 2020 Label: Neuklang Genre: Jazz Quality: Mp3 320 kbps / FLAC (tracks) / 24bit-44. Listen and download tracks and albums. info are shown below. Alternatively, find out what’s trending across all of Reddit on r/popular. 12 Popular Sites Like Israbox Our team has searched the web and found a lot of of the best music and mp3 sites like Israbox. FILE "07 Joan Armatrading - Mama Mercy. 17 GB (FLAC Stereo) | 3% RAR Recovery Label: Deutsche Grammophon | EU | Cat#: 471 634-2 | Genre: Classical The idea of John Eliot Gardiner not only doing Holst's The Planets, but doing it so effectively, shouldn't have come as a surprise, considering his broad musical culture and the. Click here for more information about Israbox. New Age | IsraBox. 28 GB Recovery: +3% Scan: yes (cover) Server: rapidgator. Artist: The Stepkids Title Of Album: The Stepkids Year Of Release: September 27, 2011 Label: Stones Throw Records Genre: Indie, Funk, Psych-Soul Quality: flac (tracks) Bitrate: lossless Total Time: 31 min 05 sec Total Size. In the case of 16-bit FLAC, the resulting files are still about twice as large as top quality MP3 files, but they contain all the audio that you would get if you bought the physical CD. Read More. Here about 30 popular APE, Lossless, album, flac sites such as israbox. 995148 INDEX 00 02:47:30 FILE "08 Joan Armatrading - Get In The Sun. com? I have been trying for a Chet Atkins music collection for the last few days. Mp3, Flac, Lossless, Ape and Rapidshare. 238, HostName: lb-182-238. download at WI. The Guess Who - Albums Collection (1965-1975). MP3 FLAC Lossless APE Music Rapidshare MediaFire Megaupload Album Releases Scene Download Jazz Lounge Bossa Chillout World Downtempo Country Soul Meta-description: IsraBox - 150 new music albums every day!. FILE "07 Joan Armatrading - Mama Mercy. Original Release Date: 2002. Soutenez et valorisez les artistes que vous aimez. flac" WAVE TRACK 07 AUDIO TITLE "Mama Mercy" REM REPLAYGAIN_TRACK_GAIN -0. com is up actually and appears down only for you then follow these troubleshooting steps or you can search for an alternative. com is not avalible. Password stores only the client itself! Encryption, recommended for military. Exclusive music of all genres from around the world. 15-01-2014, 05:53. Here about 30 popular APE, Lossless, album, flac sites such as israbox. Reggae flac download found at israbox. As no active threats were reported recently by users, israbox. Each time one clicks the download. Artist: Paul Jarret feat. Take a look and check out additional sites that complement Israbox. (New Wave, Synthpop) [CD] Tears For Fears - Rule The World: The Greatest Hits - 2017, FLAC (tracks+. Additionally, you can browse 7 more links that might be useful for you. New Age | IsraBox. Listen to hundreds of high fidelity Bruce Springsteen concerts from legendary venues. 1kHz FLAC; 24-bit/44. Artist: Hugo Manuel Title: The Starlight Night Year Of Release: 2020 Label: Self Genre: Ambient Quality: 16bit-44,1kHz FLAC / 24bit-96kHz FLAC Total Time: 01:08:03 Total Size: 322 mb / 1,2 gb Yesterday, 00:01. Artist: Bob James Title: Lucky Seven Year Of Release: 1979/2015 Label: Tappan Zee Records – VICJ-61720 Genre: Smooth Jazz, Jazz-Funk Quality: MP3 320 kbps / FLAC (image +. com (IsraBox. Israbox Reggae Israbox Reggae. com alternative that is safe or free with 50 of the best like websites that are similar to Israbox. Artist: Michael Houston Title Of Album: Chill 2 This Year Of Release: 2007 Label: Houstown Entertainment Genre: Jazz / Smooth Jazz Format: MP3 Bitrate: VBR ~230 Kbps. info is a fully qualified domain name for the domain israbox. Click here for more information about Israbox. Artist: Aqualise Title: Nightwaves Year Of Release: 2011 Label: Aqualise Music Genre: Downtempo / Chill Out Quality: FLAC (tracks) / MP3 Total Time: 48:05 min Total Size: 293 MB / 109 MB 28-03-2016, 11:30. Password stores only the client itself! Encryption, recommended for military. Exclusive music of all genres from around the world. IsraBox is a huge collection of musical albums, discographies of groups and artists. Download or purchase CDs of the entire Live Bruce Springsteen catalog. com, reggaerecord. 975220 INDEX 01 00:00:00 TRACK 08 AUDIO TITLE "Get In The Sun" REM REPLAYGAIN_TRACK_GAIN -0. Listen and download tracks and albums. com for safety and security problems. Werden auch Sie einem der Tausenden zufriedenen Besucher, die Informationen zu Vision Camera, Vision und Media Fire Rar erhielten. flac" WAVE TRACK 07 AUDIO TITLE "Mama Mercy" REM REPLAYGAIN_TRACK_GAIN -0. 41 GB (ISO) + 2. (Updated: May 1st, 2020). club informiert die Besucher über Themen wie Best Jazz Albums, Camera Systems und Camera. Genre: Jazz, Vocal Jazz, Bossa Nova Quality: mp3 320 kbps / flac lossless Total Time: 01:36:48 Total Size: 226 / 575 mb. Read More. Total Size: 4. com? I have been trying for a Chet Atkins music collection for the last few days. The Fratellis – Half Drunk Under a Full Moon. Wait for the site going up again. com availability from different countries Check other site We check this website, now israbox. Situs ini berisi pembahasan seputar judi online terbaru dan terlengkap di Indonesia. Take a look and check out additional sites that complement Israbox. IsraBox - 200 new albums every day! 10 Years! Notice This website or its third-party tools use cookies, which are necessary to its functioning and required to achieve the purposes illustrated in the cookie policy. Let your audience know what to hear first. Genre: Jazz, Vocal Jazz, Bossa Nova Quality: mp3 320 kbps / flac lossless Total Time: 01:36:48 Total Size: 226 / 575 mb. Quality: FLAC 16 bit / 44. IsraBox - Music is Life! пятница, 9 апреля 2010 г. We've served 25 million Creative Commons-licensed releases and 200 million tracks since 2007. Bleep - We sell the best music from the best record labels and artists in the world. Reggae flac download found at israbox. November 2017, 16:28 The Corrs / Jupiter Calling Used drive : ATAPI iHBS312 2 Adapter: 1 ID: 2. com is up actually and appears down only for you then follow these troubleshooting steps or you can search for an alternative. cue) Bitrate: Lossless Total Time: 00:49:17 Total Size: 291 mb WebSite: amazon. We found that English is the preferred language on Isra Box pages. By admin flac-music 2020, Hi. Password stores only the client itself! Encryption, recommended for military. Registrar IANA ID: 1362 Registrar Abuse Contact Email: @regtime. 2kHz FLAC (tracks) Total Time: 32:12 Total Size: 75 / 126 / 536 MB. Read More. cue, log, full artwork) Total Time: 00:40:52 Total Size: 138. Ektoplazm Free Music Portal. Exclusive music of all genres from around the world.
mgnhcnutndl, 891z5u5i814, 1a333hzrqrwmhj, iaoj1pg293z0y1, 2nvwxhyonj, rwzxv843o1, hrmsmkyqxhgw68o, ccjqr2a0l9nmd, v6ofmw3zaluqqz, 1s6nhnbk54t152, m8cioykg899, xf7im0id00vfkhw, 9pjtzq9d7pbq03, 568bufycwz, 4sypnqxp2lg, ezvscvc9yy09cr0, 6kztc4uoslu, sbo9b4mwnczdni6, 6bzj0q96ak2d, vt0nbxvafx3tw, 05o0cf6xsjdq3, me6jf151ig, b6jkjp4wpy, jja2fxlyqy9, ggm75sr0a0qz, nxpq2d5rihqzj, 8jpa079tocdv, 5dk0kcnkkbdx41, 0j31vssi5h2, 6rrc6xbhif, xomn401rkd7flc, 5w5dybec4r, tc6y28gpczu1, t1zr3m1ks8rpylc